Скачать через торрент Бамблби Bumblebee Фильм бесплатно в хорошем качестве torrent

Скачивайте на UnionPeer.org фильмы через торрент без регистрации. Новинки кино в хорошем качестве через торрент. На UnionPeer.org можно скачать через торрент фильмы 2014 и 2015 годов. Самые новые фильмы.

Скачать торрент Бамблби Bumblebee бесплатно через .torrent фильм мультфильм сериал

Статистика раздачи
Размер:  5.58 GB   |    Зарегистрирован:  18 дней   |    .torrent скачан:  373 раза   |   
Раздают:  1  
   
загрузка...
 
Автор Сообщение

Galfimbul

avatar Galfimbul


Бамблби /Bumblebee

Год выхода: 2018
Жанр: фантастика, боевик, приключения

Режиссер: Трэвис Найт

В ролях: Дилан О'Брайен, Хейли Стайнфелд, Джастин Теру, Джон Сина, Анджела Бассетт, Памела Адлон, Мегин Прайс, Грэй ДеЛисл, Питер Каллен, Кеннет Чои

О фильме:
1987 год. Скрываясь от преследования, Бамблби находит убежище на автомобильной свалке в калифорнийском городке, где живет Чарли. Девушке скоро исполнится 18, она стремится найти свое место в жизни. И именно она наталкивается на покореженного и сломленного Бамблби. Приведя его в чувство, Чарли моментально осознает: на ее пути оказался не простой желтый Фольксваген Жук….



Страна: США
Продолжительность: 01:53:47
Перевод: Профессиональный (многоголосый, закадровый) [СВ Студия]

Файл
Кодек: x.264
Качество: WEBRip 1080p
Видео: AVC, 1920x1080 (16:9), 29.970 fps, 6 500 kb/s
Аудио 1: AC-3, 48.0 kHz, 2 ch, 256 kb/s (MVO, Русский)
Аудио 2: AC-3, 48.0 kHz, 2 ch, 192 kb/s (DUB/Line, Украинский)
Аудио 3: AC-3, 48.0 kHz, 2 ch, 192 kb/s (Английский)
Субтитры: Английские

Сэмпл

Рекламы нет
Общее
Уникальный идентификатор : 222650760615687771376046789448075117886 (0xA780FA09143A23D5B09C58430D81053E)
Полное имя : E:Bumblebee.2018.WEBRip.1080p.mkv
Формат : Matroska
Версия формата : Version 4
Размер файла : 5,58 Гбайт
Продолжительность : 1 ч. 53 м.
Общий поток : 7026 Кбит/сек
Дата кодирования : UTC 2019-01-30 09:46:28
Программа кодирования : mkvmerge v8.3.0 ('Over the Horizon') 64bit
Библиотека кодирования : libebml v1.3.1 + libmatroska v1.4.2

Видео
Идентификатор : 1
Формат : AVC
Формат/Информация : Advanced Video Codec
Профиль формата : [email protected]
Настройки формата : CABAC / 4 Ref Frames
Параметр CABAC формата : Да
Параметр RefFrames формата : 4 кадра
Идентификатор кодека : V_MPEG4/ISO/AVC
Продолжительность : 1 ч. 53 м.
Битрейт : 6500 Кбит/сек
Ширина : 1920 пикселей
Высота : 1080 пикселей
Соотношение сторон : 16:9
Режим частоты кадров : Постоянный
Частота кадров : 29,970 (30000/1001) кадров/сек
Цветовое пространство : YUV
Субдискретизация насыщенности : 4:2:0
Битовая глубина : 8 бит
Тип развёртки : Прогрессивная
Бит/(Пиксели*Кадры) : 0.105
Размер потока : 5,07 Гбайт (91%)
Библиотека кодирования : x264 core 152 r2851M ba24899
Настройки программы : cabac=1 / ref=3 / deblock=1:-2:-2 / analyse=0x3:0x113 / me=hex / subme=7 / psy=1 / psy_rd=1.00:0.25 / mixed_ref=1 / me_range=16 / chroma_me=1 / trellis=1 / 8x8dct=1 / cqm=0 / deadzone=6,6 / fast_pskip=1 / chroma_qp_offset=-4 / threads=12 / lookahead_threads=2 / sliced_threads=0 / nr=0 / decimate=0 / interlaced=0 / bluray_compat=0 / constrained_intra=0 / bframes=3 / b_pyramid=2 / b_adapt=1 / b_bias=0 / direct=1 / weightb=1 / open_gop=0 / weightp=2 / keyint=250 / keyint_min=25 / scenecut=40 / intra_refresh=0 / rc_lookahead=40 / rc=abr / mbtree=1 / bitrate=6500 / ratetol=1.0 / qcomp=0.80 / qpmin=0 / qpmax=69 / qpstep=4 / ip_ratio=1.10 / aq=1:0.50
Язык : English
Default : Да
Forced : Нет
Цветовой диапазон : Limited
Коэффициенты матрицы : BT.470 System B/G

Аудио #1
Идентификатор : 2
Формат : AC-3
Формат/Информация : Audio Coding 3
Коммерческое название : Dolby Digital
Идентификатор кодека : A_AC3
Продолжительность : 1 ч. 53 м.
Вид битрейта : Постоянный
Битрейт : 256 Кбит/сек
Каналы : 2 канала
Channel layout : L R
Частота : 48,0 КГц
Частота кадров : 31,250 кадров/сек (1536 SPF)
Битовая глубина : 16 бит
Метод сжатия : С потерями
Задержка видео : -67 мс.
Размер потока : 208 Мбайт (4%)
Заголовок : MVO
Язык : Russian
Default : Да
Forced : Нет

Аудио #2
Идентификатор : 3
Формат : AC-3
Формат/Информация : Audio Coding 3
Коммерческое название : Dolby Digital
Идентификатор кодека : A_AC3
Продолжительность : 1 ч. 53 м.
Вид битрейта : Постоянный
Битрейт : 192 Кбит/сек
Каналы : 2 канала
Channel layout : L R
Частота : 48,0 КГц
Частота кадров : 31,250 кадров/сек (1536 SPF)
Битовая глубина : 16 бит
Метод сжатия : С потерями
Задержка видео : -67 мс.
Размер потока : 156 Мбайт (3%)
Заголовок : Line
Язык : Ukrainian
Default : Нет
Forced : Нет

Аудио #3
Идентификатор : 4
Формат : AC-3
Формат/Информация : Audio Coding 3
Коммерческое название : Dolby Digital
Идентификатор кодека : A_AC3
Продолжительность : 1 ч. 53 м.
Вид битрейта : Постоянный
Битрейт : 192 Кбит/сек
Каналы : 2 канала
Channel layout : L R
Частота : 48,0 КГц
Частота кадров : 31,250 кадров/сек (1536 SPF)
Битовая глубина : 16 бит
Метод сжатия : С потерями
Задержка видео : -67 мс.
Размер потока : 156 Мбайт (3%)
Язык : English
Default : Нет
Forced : Нет

Текст
Идентификатор : 5
Формат : UTF-8
Идентификатор кодека : S_TEXT/UTF8
Идентификатор кодека/Информация : UTF-8 Plain Text
Продолжительность : 1 ч. 48 м.
Битрейт : 77 бит/сек
ElementCount : 1111
Размер потока : 62,2 Кбайт (0%)
Язык : English
Default : Нет
Forced : Нет
30.01.19 добавлена русская звуковая дорожка
Источник http://BlaTor.org

Трекер:  [ 30-Янв-2019 14:20 ]

  

Скачать .torrent

Размер .torrent файла 14 KB


Размер: 5.58 GB
Хэш (hash) релиза: d9ac0da23c66cec0581c64cabf8cd3bf065135f1
Подписка на обновления:

Еще никто не оставлял запись к записи скачать торрент Бамблби Bumblebee . Будь первым!

!Обратная связь