Скачать через торрент Вольтрон: Легендарный защитник Voltron: Legendary Defender Фильм бесплатно в хорошем качестве torrent

Скачивайте на UnionPeer.org фильмы через торрент без регистрации. Новинки кино в хорошем качестве через торрент. На UnionPeer.org можно скачать через торрент фильмы 2014 и 2015 годов. Самые новые фильмы.

Скачать торрент Вольтрон: Легендарный защитник Voltron: Legendary Defender бесплатно через .torrent фильм мультфильм сериал

Статистика раздачи
Размер:  8.44 GB   |    Зарегистрирован:  9 дней   |    .torrent скачан:  25 раз   |   
Раздают:  1  
   
загрузка...
 
Автор Сообщение

Galfimbul

avatar Galfimbul


Вольтрон: Легендарный защитник /Voltron: Legendary Defender

Год выпуска: 2016

Страна: США
Жанр: мультфильм, фантастика, боевик, комедия, приключения, семейный
Перевод: Любительский [многоголосый] | KANSAI Studio
Продолжительность: ~00:24:00 (пилот 01:08:46)
Режиссер: Юджин Ли , Стив Ан , Крис Палмер
В ролях: Джереми Шэда (Lance, озвучка), Бекс Тейлор-Клаус (Pidge, озвучка), Тайлер Лабин (Hunk, озвучка), Сонни Дей (Allura, озвучка), Джошуа Китон (Shiro, озвучка), Риз Дэрби (Coran, озвучка), Стивен Ян (Keith, озвучка), А.Дж. Локасцио (Lotor), Кри Саммер (Witch Haggar, озвучка), Боб Бобсон (Emperor Zarkon, озвучка), Нолан Норт (Samuel Holt, озвучка), Кимико Гленн (Ezor)
Описание:
Пять земных подростков - Кит, Лэнс, Ханк, Пидж и Широ - волею судьбы стали пилотами величайшего оружия во вселенной, Вольтрона. Теперь они последняя надежда галактики в битве против империи Галра и её правителя Заркона.
Рейтинг:

Качество: WEB-DL 1080p | Voltron.Legendary.Defender.S01.1080p.NF.WEB-DL.DD5.1.x264-NTb
Формат: MKV
Видео: AVC, 1920x1080 (16:9), 4640 kbps, 23,976 fps, 0,093 bpp
Аудио №1: русский / AC3 / 2.0 / 48 kHz / 192 kbps
Аудио №2: английский / AC3 / 5.1 / 48 kHz / 384 kbps
Субтитры: английские
Реклама: Присутствует звуковая.
General
Unique ID : 233586494990416403272718105161778250246 (0xAFBB1F5E2B2F5EECBDA41860A74AC206)
Complete name : G:_kansaitorVoltron.Legendary.Defender.S01.1080p.WEBDL-KANSAIVoltron.Legendary.Defender.S01E01.The.Rise.Of.Voltron.1080p.WEBDL-KANSAI.mkv
Format : Matroska
Format version : Version 4 / Version 2
File size : 2.49 GiB
Duration : 1 h 8 min
Overall bit rate mode : Variable
Overall bit rate : 5 189 kb/s
Encoded date : UTC 2018-12-14 15:24:14
Writing application : mkvmerge v6.7.0 ('Back to the Ground') 64bit built on Jan 8 2014 15:10:52
Writing library : libebml v1.3.0 + libmatroska v1.4.1

Video
ID : 1
Format : AVC
Format/Info : Advanced Video Codec
Format profile : [email protected]
Format settings, CABAC : Yes
Format settings, ReFrames : 3 frames
Codec ID : V_MPEG4/ISO/AVC
Duration : 1 h 8 min
Bit rate mode : Variable
Bit rate : 4 640 kb/s
Maximum bit rate : 6 960 kb/s
Width : 1 920 pixels
Height : 1 080 pixels
Display aspect ratio : 16:9
Frame rate mode : Constant
Frame rate : 23.976 (24000/1001) FPS
Color space : YUV
Chroma subsampling : 4:2:0
Bit depth : 8 bits
Scan type : Progressive
Bits/(Pixel*Frame) : 0.093
Stream size : 2.17 GiB (87%)
Writing library : x264 core 118
Encoding settings : cabac=1 / ref=3 / deblock=1:0:0 / analyse=0x1:0x111 / me=umh / subme=10 / psy=1 / psy_rd=1.00:0.00 / mixed_ref=1 / me_range=24 / chroma_me=1 / trellis=2 / 8x8dct=0 / cqm=0 / deadzone=21,11 / fast_pskip=1 / chroma_qp_offset=-2 / threads=8 / sliced_threads=0 / nr=0 / decimate=1 / interlaced=0 / bluray_compat=0 / constrained_intra=0 / bframes=2 / b_pyramid=0 / b_adapt=2 / b_bias=0 / direct=3 / weightb=1 / open_gop=0 / weightp=2 / keyint=48 / keyint_min=25 / scenecut=0 / intra_refresh=0 / rc_lookahead=0 / rc=2pass / mbtree=1 / bitrate=4640 / ratetol=1.0 / qcomp=0.50 / qpmin=6 / qpmax=51 / qpstep=4 / cplxblur=20.0 / qblur=0.5 / vbv_maxrate=6960 / vbv_bufsize=9280 / nal_hrd=vbr / ip_ratio=1.40 / aq=1:1.00
Default : Yes
Forced : No

Audio #1
ID : 2
Format : AC-3
Format/Info : Audio Coding 3
Mode extension : CM (complete main)
Format settings, Endianness : Big
Codec ID : A_AC3
Duration : 1 h 8 min
Bit rate mode : Constant
Bit rate : 192 kb/s
Channel(s) : 2 channels
Channel positions : Front: L R
Sampling rate : 48.0 kHz
Frame rate : 31.250 FPS (1536 spf)
Compression mode : Lossy
Stream size : 94.5 MiB (4%)
Title : KANSAI Studio
Language : Russian
Default : Yes
Forced : No

Audio #2
ID : 3
Format : AC-3
Format/Info : Audio Coding 3
Mode extension : CM (complete main)
Format settings, Endianness : Big
Codec ID : A_AC3
Duration : 1 h 8 min
Bit rate mode : Constant
Bit rate : 384 kb/s
Channel(s) : 6 channels
Channel positions : Front: L C R, Side: L R, LFE
Sampling rate : 48.0 kHz
Frame rate : 31.250 FPS (1536 spf)
Compression mode : Lossy
Stream size : 189 MiB (7%)
Language : English
Default : No
Forced : No

Text
ID : 4
Format : UTF-8
Codec ID : S_TEXT/UTF8
Codec ID/Info : UTF-8 Plain Text
Title : English
Language : English
Default : No
Forced : No
Источник http://BlaTor.org

Трекер:  [ 08-Фев-2019 16:30 ]

  

Скачать .torrent

Размер .torrent файла 43 KB


Размер: 8.44 GB
Хэш (hash) релиза: d71a2e5ab2a3df434c3f0dde9ceb116865da4f0c
Подписка на обновления:

Торренты, похожие на Вольтрон: Легендарный защитник Voltron: Legendary Defender скачать торрент

Форум Название Автор Размер S L Добавлен
Мультфильмы 2016-2018 (Новинки мультфильмов) ·%· Вольтрон: Легендарный защитник / Voltron: Legendary Defender [S07] (2018) WEBRip | ColdFilm Galfimbul 35383811103.3 GB 0 0 1536156167

17:02

5-Сен-18

Мультфильмы 2016-2018 (Новинки мультфильмов) ·%· Вольтрон: Легендарный защитник / Voltron: Legendary Defender [S07] (2018) WEBRip 720p | ColdFilm Galfimbul 93920719708.75 GB 0 0 1536156154

17:02

5-Сен-18

Мультфильмы 2016-2018 (Новинки мультфильмов) ·%· Вольтрон: Легендарный защитник / Voltron: Legendary Defender [S07] (2018) WEBRip 1080p | ColdFilm Galfimbul 1165676380510.86 GB 0 0 1536156139

17:02

5-Сен-18

Мультсериалы ·· Вольтрон: Легендарный защитник / Voltron: Legendary Defender / Сезон: 1-2 / Серии: 1-12 из 25 (Хоаким Дос Сантос / Joaquim Dos Santos) [2016-2017, США, мультфильм, фантастика, приключения, WEBRip 1080p] Rus Sub Galfimbul 1320430839012.3 GB 0 0 1485216116

03:01

24-Янв-17

Мультсериалы ·· Вольтрон: Легендарный защитник / Voltron: Legendary Defender / Сезон: 1 / Серии: 01-11 из 11 (Хоаким Дос Сантос / Joaquim Dos Santos) [2016, США, мультфильм, фантастика, приключения, WEBRip] AVO + Rus Sub Galfimbul 36270846733.38 GB 0 0 1469385801

21:43

24-Июл-16

Мультсериалы ·· Вольтрон: Легендарный защитник / Voltron: Legendary Defender / Сезон: 1 / Серии: 1-11 из 11 (Хоаким Дос Сантос / Joaquim Dos Santos) [2016, США, мультфильм, фантастика, приключения, WEBRip 1080p] Rus Sub Galfimbul 1229592812411.45 GB 0 0 1467723826

16:03

5-Июл-16

Мультсериалы ·· Вольтрон: Легендарный защитник / Voltron: Legendary Defender / Сезон: 1 / Серии: 8 из 11 (Хоаким Дос Сантос / Joaquim Dos Santos) [2016, США, мультфильм, фантастика, приключения, WEBRip 1080p] Rus Sub Galfimbul 94719909188.82 GB 0 0 1467112010

14:06

28-Июн-16

Мультсериалы ·· Вольтрон: Легендарный защитник / Voltron: Legendary Defender / Сезон: 1 / Серии: 5 из 11 (Хоаким Дос Сантос / Joaquim Dos Santos) [2016, США, мультфильм, фантастика, приключения, WEBRip 1080p] Rus Sub Galfimbul 65231044226.08 GB 0 0 1466578945

10:02

22-Июн-16

Мультсериалы ·· Вольтрон: Легендарный защитник / Voltron: Legendary Defender / Сезон: 1 / Серии: 3 из 11 (Хоаким Дос Сантос / Joaquim Dos Santos) [2016, США, мультфильм, фантастика, приключения, WEBRip 1080p] Rus Sub Galfimbul 47827197034.45 GB 0 0 1466251809

15:10

18-Июн-16

Мультсериалы ·· Вольтрон: Легендарный защитник / Voltron: Legendary Defender / Сезон: 1 / Серии: 1 из 11 (Бенжамин Калтенекер / Benjamin Kaltenecker) [2016, США, мультфильм, фантастика, приключения, WEBRip 1080p] Rus Sub Galfimbul 27788630572.59 GB 0 0 1466016011

21:40

15-Июн-16

Еще никто не оставлял запись к записи скачать торрент Вольтрон: Легендарный защитник Voltron: Legendary Defender . Будь первым!

!Обратная связь